extratorrent - A Fan Made Alternative Login   |   Register
Important Information
Registrations are open now
-------------------------------------

Please click here to register with Extratorrent2 to recieve latest updates, add bookmarks and to post comments.

Friends
Friends

1) ProxyFix

Extratorrent2 > Categories > Movies > Memoir.of.War.2017.1080p.BRRip.x264.AC3.HORiZON-ArtSubs torrent


Browse Movies torrents

Memoir.of.War.2017.1080p.BRRip.x264.AC3.HORiZON-ArtSubs torrent


La douleur (2017)
Name: La douleur
Released Year: 2017
Runtime: 0 mins
Gener: Drama
Director: Emmanuel Finkiel
Country: France
IMDB Rating: N/A
Plot: N/A

Download torrent: Download Memoir.of.War.2017.1080p.BRRip.x264.AC3.HORiZON-ArtSubs torrent Magnet link Bookmark Torrent: Memoir.of.War.2017.1080p.BRRip.x264.AC3.HORiZON-ArtSubs   Memoir.of.War.2017.1080p.BRRip.x264.AC3.HORiZON-ArtSubs torrent
Info hash: 1ECA89B21E7E92A77D7FBCCD0464AC4D387DBE68
Category: Categories > Movies
Trackers:
View all torrent trackers >
Health:
 seeds: 16 ,  leechers: 3 |  Update >
Torrent language: French French
Total Size: 2.2 GB
Files List:
1    View torrent files >
Uploader:
noriegaRJ
Torrent added: October 23, 2018, 4:50 am
Tags: france, drama, war, oscar
IMDB: http://www.imdb.com/title/tt6313378
Users rating: ---, not rated. please login to rate.

Download Memoir.of.War.2017.1080p.BRRip.x264.AC3.HORiZON-ArtSubs torrent



Torrent Description

Release: Memoir.of.War.2017.1080p.BRRip.x264.AC3.HORiZON-ArtSubs



IMDB: http://www.imdb.com/title/tt6313378

Plot: Marguerite must navigate through the hardships of the Liberation after losing her husband and starting a relationship with the enemy during the War. Official submission of France for the 'Best Foreign Language Film' category of the 91st Academy Awards in 2019.

General
Complete name : Memoir.of.War.2017.1080p.BRRip.x264.AC3.HORiZON-ArtSubs.mkv
Format : Matroska
Format version : Version 2
File size : 2.22 GiB
Duration : 2 h 6 min
Overall bit rate : 2 517 kb/s
Movie name : La.Douleur.2017.VOF.1080p.BluRay.mHD.x264.AC3.5.1-SEL
Encoded date : UTC 2018-10-21 12:27:33
Writing application : DVDFab 10.0.8.7
Writing library : libebml v1.3.4 + libmatroska v1.4.5

Video
ID : 1
Format : AVC
Format/Info : Advanced Video Codec
Format profile :
Format settings : CABAC / 1 Ref Frames
Format settings, CABAC : Yes
Format settings, RefFrames : 1 frame
Format settings, GOP : M=1, N=24
Codec ID : V_MPEG4/ISO/AVC
Duration : 2 h 6 min
Bit rate mode : Constant
Bit rate : 2 043 kb/s
Nominal bit rate : 2 207 kb/s
Width : 1 920 pixels
Height : 1 080 pixels
Display aspect ratio : 16:9
Frame rate mode : Constant
Frame rate : 23.976 (24000/1001) FPS
Color space : YUV
Chroma subsampling : 4:2:0
Bit depth : 8 bits
Scan type : Progressive
Bits/(Pixel*Frame) : 0.041
Stream size : 1.80 GiB (81%)
Default : Yes
Forced : No
Color range : Limited
Color primaries : BT.709
Transfer characteristics : BT.709
Matrix coefficients : BT.709

Audio
ID : 2
Format : AC-3
Format/Info : Audio Coding 3
Codec ID : A_AC3
Duration : 2 h 6 min
Bit rate mode : Constant
Bit rate : 448 kb/s
Channel(s) : 6 channels
Channel positions : Front: L C R, Side: L R, LFE
Sampling rate : 48.0 kHz
Frame rate : 31.250 FPS (1536 SPF)
Bit depth : 16 bits
Compression mode : Lossy
Stream size : 404 MiB (18%)
Language : French
Service kind : Complete Main
Default : Yes
Forced : No

Text
ID : 3
Format : PGS
Codec ID : S_HDMV/PGS
Codec ID/Info : Picture based subtitle format used on BDs/HD-DVDs
Duration : 2 h 5 min
Bit rate : 23.6 kb/s
Count of elements : 2914
Stream size : 21.2 MiB (1%)
Language : French
Default : Yes
Forced : No


SCREENSHOTS:






Download Memoir.of.War.2017.1080p.BRRip.x264.AC3.HORiZON-ArtSubs torrent




Comments   (please login to add your comment!)


Home - Browse Torrents

Made with love by an Extratorrent Fan!