extratorrent - A Fan Made Alternative Login   |   Register
Important Information
Registrations are open now
-------------------------------------

Please click here to register with Extratorrent2 to recieve latest updates, add bookmarks and to post comments.

Friends
Friends

1) ProxyFix

Extratorrent2 > Categories > Movies > Permission 2017 720p BRRip x264 [MW] torrent


Browse Movies torrents

Permission 2017 720p BRRip x264 [MW] torrent


Download torrent: Download Permission 2017 720p BRRip x264 [MW] torrent Magnet link Bookmark Torrent: Permission 2017 720p BRRip x264 [MW]   Permission 2017 720p BRRip x264 [MW] torrent
Info hash: F3E84265F2D91982E7CFB8D48A1B524BB67F19A4
Category: Categories > Movies
Trackers:
View all torrent trackers >
Health:
 seeds: 5 ,  leechers: 3 |  Update >
Torrent language: English English
Total Size: 776.2 MB
Files List:
1    View torrent files >
Uploader:
moviezworldz
Torrent added: October 23, 2018, 5:22 am
Tags: Comedy, Drama, Romance
Users rating: ---, not rated. please login to rate.

Download Permission 2017 720p BRRip x264 [MW] torrent



Torrent Description





General
Format : Matroska
Format version : Version 4 / Version 2
File size : 776 MiB
Duration : 1 h 37 min
Overall bit rate : 1 116 kb/s

Video
ID : 1
Format : AVC
Format/Info : Advanced Video Codec
Format profile :
Format settings : CABAC / 5 Ref Frames
Format settings, CABAC : Yes
Format settings, RefFrames : 5 frames
Codec ID : V_MPEG4/ISO/AVC
Duration : 1 h 37 min
Bit rate : 1 000 kb/s
Width : 1 280 pixels
Height : 532 pixels
Display aspect ratio : 2.40:1
Frame rate mode : Constant
Frame rate : 23.976 (24000/1001) FPS
Color space : YUV
Chroma subsampling : 4:2:0
Bit depth : 8 bits
Scan type : Progressive
Bits/(Pixel*Frame) : 0.061
Stream size : 687 MiB (88%)
Writing library : x264 core 155 r2901 7d0ff22
Default : Yes
Forced : No

Audio
ID : 2
Format : AAC
Format/Info : Advanced Audio Codec
Format profile : HE-AAC / LC
Format settings : Explicit
Codec ID : A_AAC-2
Duration : 1 h 37 min
Bit rate : 127 kb/s
Channel(s) : 2 channels
Channel positions : Front: L R
Sampling rate : 48.0 kHz / 24.0 kHz
Frame rate : 23.438 FPS (1024 SPF)
Compression mode : Lossy
Stream size : 88.0 MiB (11%)
Language : English
Default : Yes
Forced : No


Click To Enlarge Image








Download Permission 2017 720p BRRip x264 [MW] torrent


Related Torrents


Comments   (please login to add your comment!)

now you see me     vice     manyvids     beowulf return     the visit     hindi 2017     the battle of the ex besties     mom sex     437     buster     red     2012 dts     2013 flac     bootystar     dual audio uncut     mofos     war 2018     avengers     bianca stone audrey hollander     reality junkies     bengali     goldrush     rohff     43245     


Home - Browse Torrents

Made with love by an Extratorrent Fan!