extratorrent - A Fan Made Alternative Login   |   Register
Important Information
Registrations are open now
-------------------------------------

Please click here to register with Extratorrent2 to recieve latest updates, add bookmarks and to post comments.

Friends
Friends

1) ProxyFix

Extratorrent2 > Categories > Movies > Blackmail (2018) Hindi 1080p WEBHD - 1080p - AVC - AAC - 2.1GB - MovCr torrent


Browse Movies torrents

Blackmail (2018) Hindi 1080p WEBHD - 1080p - AVC - AAC - 2.1GB - MovCr torrent


Blackmail (2018)
Name: Blackmail
Released Year: 2018
Runtime: 138 mins
Gener: Action, Comedy, Thriller
Director: Abhinay Deo
Country: India
IMDB Rating: 7.1/10
Plot: When Dev finds out his wife is cheating on him, he secretly blackmails his wife and her lover as a form of revenge.

Download torrent: Download Blackmail (2018) Hindi 1080p WEBHD - 1080p - AVC - AAC - 2.1GB - MovCr torrent Magnet link Bookmark Torrent: Blackmail (2018) Hindi 1080p WEBHD - 1080p - AVC - AAC - 2.1GB - MovCr   Blackmail (2018) Hindi 1080p WEBHD - 1080p - AVC - AAC - 2.1GB - MovCr torrent
Info hash: 2D7CECEF4249BFCBE49B0BFE4C3276F077F9C153
Category: Categories > Movies
Trackers:
View all torrent trackers >
Health:
 seeds: 25 ,  leechers: 19 |  Update >
Torrent language: Hindi Hindi
Total Size: 2.1 GB
Files List:
1    View torrent files >
Uploader:
ictv
Torrent added: June 15, 2018, 3:37 pm
Tags: "Comedy", "Drama"
IMDB: http://www.imdb.com/title/tt6972140
Users rating: ---, not rated. please login to rate.

Download Blackmail (2018) Hindi 1080p WEBHD - 1080p - AVC - AAC - 2.1GB - MovCr torrent



Torrent Description

Visit Our Site For More Exclusives www.movcr.com

http://www.imdb.com/title/tt6972140/



General
Unique ID : 126111265154040717774130130831750132882 (0x5EE0256C9B94B1E7E2E89C20E742F492)
Complete name : [MovCr.com] - Blackmail (2018) Hindi 1080p WEBHD - 1080p - AVC - AAC - 2.1GB - MovCr.mkv
Format : Matroska
Format version : Version 4 / Version 2
File size : 2.11 GiB
Duration : 2 h 17 min
Overall bit rate : 2 197 kb/s
Movie name : www.MovCr.com
Encoded date : UTC 2018-06-15 04:58:26
Writing application : mkvmerge v23.0.0 ('The Bride Said No') 64-bit
Writing library : libebml v1.3.6 + libmatroska v1.4.9

Video
ID : 1
Format : AVC
Format/Info : Advanced Video Codec
Format profile :
Format settings, CABAC : Yes
Format settings, ReFrames : 1 frame
Format settings, GOP : M=1, N=48
Codec ID : V_MPEG4/ISO/AVC
Duration : 2 h 17 min
Bit rate : 2 067 kb/s
Width : 1 920 pixels
Height : 816 pixels
Display aspect ratio : 2.35:1
Frame rate mode : Constant
Frame rate : 23.976 (24000/1001) FPS
Color space : YUV
Chroma subsampling : 4:2:0
Bit depth : 8 bits
Scan type : Progressive
Bits/(Pixel*Frame) : 0.055
Stream size : 1.98 GiB (94%)
Title : www.MovCr.com
Default : Yes
Forced : No
Color range : Limited
Color primaries : BT.709
Transfer characteristics : BT.709
Matrix coefficients : BT.709

Audio
ID : 2
Format : AAC
Format/Info : Advanced Audio Codec
Format profile : LC
Codec ID : A_AAC
Duration : 2 h 17 min
Bit rate : 128 kb/s
Channel(s) : 2 channels
Channel positions : Front: L R
Sampling rate : 44.1 kHz
Frame rate : 43.066 FPS (1024 spf)
Compression mode : Lossy
Stream size : 126 MiB (6%)
Title : www.MovCr.com
Language : Hindi
Default : Yes
Forced : No

Text
ID : 3
Format : UTF-8
Codec ID : S_TEXT/UTF8
Codec ID/Info : UTF-8 Plain Text
Duration : 2 h 12 min
Bit rate : 46 b/s
Count of elements : 1706
Stream size : 45.5 KiB (0%)
Title : www.MovCr.com
Language : English
Default : Yes
Forced : No











Download Blackmail (2018) Hindi 1080p WEBHD - 1080p - AVC - AAC - 2.1GB - MovCr torrent


Related Torrents


Comments   (please login to add your comment!)

edy     2012 english hindi     analfinger     the land before time     edtv     mom     belaseshe     salvation xvid     nina elle the virgin son     a good day hindi     blackmail 2018     inside 2006     agents of s     lesshin n814     dangal     sara jay     chd     indian dancing     bahubali 1 telugu     colette eveline     oceano     2017 brazzers     fun     students     


Home - Browse Torrents

Made with love by an Extratorrent Fan!