extratorrent - A Fan Made Alternative Login   |   Register
Important Information
Registrations are open now
-------------------------------------

Please click here to register with Extratorrent2 to recieve latest updates, add bookmarks and to post comments.

Friends
Friends

1) ProxyFix

Extratorrent2 > Categories > Movies > Blackmail (2018) Hindi - 720p - HDRip - x264 - 950MB - AAC - ESub - MovCr torrent


Browse Movies torrents

Blackmail (2018) Hindi - 720p - HDRip - x264 - 950MB - AAC - ESub - MovCr torrent


Download torrent: Download Blackmail (2018) Hindi - 720p - HDRip - x264 - 950MB - AAC - ESub - MovCr torrent Magnet link Bookmark Torrent: Blackmail (2018) Hindi - 720p - HDRip - x264 - 950MB - AAC - ESub - MovCr   Blackmail (2018) Hindi - 720p - HDRip - x264 - 950MB - AAC - ESub - MovCr torrent
Info hash: ED09E26C7B10CB7AD64F89EF86ADE2B9A026606A
Category: Categories > Movies
Trackers:
View all torrent trackers >
Health:
 seeds: 30 ,  leechers: 17 |  Update >
Torrent language: Hindi Hindi
Total Size: 950.5 MB
Files List:
1    View torrent files >
Uploader:
MovCr
Torrent added: June 15, 2018, 3:37 pm
Users rating: ---, not rated. please login to rate.

Download Blackmail (2018) Hindi - 720p - HDRip - x264 - 950MB - AAC - ESub - MovCr torrent



Torrent Description

http://movcr.com

Blackmail (2018) Hindi - 720p - HDRip - x264 - 950MB - AAC - ESub - MovCr


Video
ID : 1
Format : AVC
Format/Info : Advanced Video Codec
Format profile :
Format settings, CABAC : Yes
Format settings, ReFrames : 4 frames
Codec ID : V_MPEG4/ISO/AVC
Duration : 2 h 17 min
Bit rate : 807 kb/s
Width : 1 280 pixels
Height : 540 pixels
Display aspect ratio : 2.40:1
Frame rate mode : Constant
Frame rate : 23.976 (23976/1000) FPS
Color space : YUV
Chroma subsampling : 4:2:0
Bit depth : 8 bits
Scan type : Progressive
Bits/(Pixel*Frame) : 0.049
Stream size : 791 MiB (83%)
Title : www.MovCr.com
Writing library : x264 core 148 r2708 86b7198
Encoding settings : cabac=1 / ref=3 / deblock=1:0:0 / analyse=0x3:0x113 / me=hex / subme=7 / psy=1 / psy_rd=1.00:0.00 / mixed_ref=1 / me_range=16 / chroma_me=1 / trellis=1 / 8x8dct=1 / cqm=0 / deadzone=21,11 / fast_pskip=1 / chroma_qp_offset=-2 / threads=17 / lookahead_threads=2 / sliced_threads=0 / nr=0 / decimate=1 / interlaced=0 / bluray_compat=0 / constrained_intra=0 / bframes=3 / b_pyramid=2 / b_adapt=1 / b_bias=0 / direct=1 / weightb=1 / open_gop=0 / weightp=2 / keyint=240 / keyint_min=24 / scenecut=40 / intra_refresh=0 / rc_lookahead=40 / rc=abr / mbtree=1 / bitrate=807 / ratetol=1.0 / qcomp=0.60 / qpmin=0 / qpmax=69 / qpstep=4 / vbv_maxrate=62500 / vbv_bufsize=78125 / nal_hrd=none / filler=0 / ip_ratio=1.40 / aq=1:1.00
Default : Yes
Forced : No
Color range : Limited
Color primaries : BT.709
Transfer characteristics : BT.709
Matrix coefficients : BT.709

Audio
ID : 2
Format : AAC
Format/Info : Advanced Audio Codec
Format profile : LC
Codec ID : A_AAC
Duration : 2 h 17 min
Bit rate : 160 kb/s
Channel(s) : 2 channels
Channel positions : Front: L R
Sampling rate : 48.0 kHz
Frame rate : 46.875 FPS (1024 spf)
Compression mode : Lossy
Delay relative to video : -21 ms
Stream size : 157 MiB (16%)
Title : www.MovCr.com
Language : Hindi
Default : Yes
Forced : No

Text
ID : 3
Format : UTF-8
Codec ID : S_TEXT/UTF8
Codec ID/Info : UTF-8 Plain Text
Duration : 2 h 12 min
Bit rate : 46 b/s
Count of elements : 1706
Stream size : 45.5 KiB (0%)
Title : www.MovCr.com
Language : English
Default : Yes
Forced : No






Download Blackmail (2018) Hindi - 720p - HDRip - x264 - 950MB - AAC - ESub - MovCr torrent


Related Torrents


Comments   (please login to add your comment!)

agent carter 2013     bengali     brianna beach     100 cd     ne yo good man     jay dee     highway to hell     alien 1979     jillian hevc     2018 sexy     handmade     cds     16 an     android pack     reid x265     elena of avalor     raabta     chicago fire     hindi     escorted to the brazilian back door     mom s06e09     war for the planet of the apes 2017 1080p bluray hindi     warden     1080p bluray hon3y     


Home - Browse Torrents

Made with love by an Extratorrent Fan!