extratorrent - A Fan Made Alternative Login   |   Register
Important Information
Registrations are open now
-------------------------------------

Please click here to register with Extratorrent2 to recieve latest updates, add bookmarks and to post comments.

Friends
Friends

1) ProxyFix

Extratorrent2 > Categories > Movies > Devils Gate 2017 720p BRRip x264 ESub [MW] torrent


Browse Movies torrents

Devils Gate 2017 720p BRRip x264 ESub [MW] torrent


Download torrent: Download Devils Gate 2017 720p BRRip x264 ESub [MW] torrent Magnet link Bookmark Torrent: Devils Gate 2017 720p BRRip x264 ESub [MW]   Devils Gate 2017 720p BRRip x264 ESub [MW] torrent
Info hash: AF7D4523F85B384327B81844F899E26F978A2728
Category: Categories > Movies
Trackers:
View all torrent trackers >
Health:
 seeds: 6 ,  leechers: 4 |  Update >
Torrent language: English English
Total Size: 872.5 MB
Files List:
1    View torrent files >
Uploader:
moviezworldz
Torrent added: October 23, 2018, 4:37 pm
Tags: Horror, Sci-Fi, Thriller
Users rating: ---, not rated. please login to rate.

Download Devils Gate 2017 720p BRRip x264 ESub [MW] torrent



Torrent Description





General
Format : Matroska
Format version : Version 4 / Version 2
File size : 873 MiB
Duration : 1 h 34 min
Overall bit rate : 1 294 kb/s

Video
ID : 1
Format : AVC
Format/Info : Advanced Video Codec
Format profile :
Format settings : CABAC / 4 Ref Frames
Format settings, CABAC : Yes
Format settings, RefFrames : 4 frames
Codec ID : V_MPEG4/ISO/AVC
Duration : 1 h 34 min
Bit rate : 1 200 kb/s
Width : 1 280 pixels
Height : 536 pixels
Display aspect ratio : 2.40:1
Frame rate mode : Constant
Frame rate : 23.976 (24000/1001) FPS
Color space : YUV
Chroma subsampling : 4:2:0
Bit depth : 8 bits
Scan type : Progressive
Bits/(Pixel*Frame) : 0.073
Stream size : 782 MiB (90%)
Writing library : x264 core 155 r2901 7d0ff22
Default : Yes
Forced : No

Audio
ID : 2
Format : AAC
Format/Info : Advanced Audio Codec
Format profile : HE-AAC / LC
Format settings : Explicit
Codec ID : A_AAC-2
Duration : 1 h 34 min
Bit rate : 127 kb/s
Channel(s) : 2 channels
Channel positions : Front: L R
Sampling rate : 48.0 kHz / 24.0 kHz
Frame rate : 23.438 FPS (1024 SPF)
Compression mode : Lossy
Stream size : 85.4 MiB (10%)
Language : English
Default : Yes
Forced : No

Text #1
ID : 3
Format : VobSub
Muxing mode : zlib
Codec ID : S_VOBSUB
Codec ID/Info : Picture based subtitle format used on DVDs
Duration : 1 h 30 min
Bit rate : 3 018 b/s
Count of elements : 1306
Stream size : 1.95 MiB (0%)
Language : English
Default : Yes
Forced : No


Click To Enlarge Image








Download Devils Gate 2017 720p BRRip x264 ESub [MW] torrent


Related Torrents


Comments   (please login to add your comment!)

topolino cbr     familystrokes demi sutra     casting couch x sadie     hevc x265 1080p     mother son     rings 2017     ita epub filosofale     candy candy     shane     alexa grace teen blonde     hacking financial     altcoin     fallout films     the rings     help     e malayalam     rend     keaton then again     karupsow angel cassidy     harley quinn origins     cougar     amy anderssen 2018     ready to     stalker     


Home - Browse Torrents

Made with love by an Extratorrent Fan!