extratorrent - A Fan Made Alternative Login   |   Register
Important Information
Registrations are open now
-------------------------------------

Please click here to register with Extratorrent2 to recieve latest updates, add bookmarks and to post comments.

Friends
Friends

1) ProxyFix

Extratorrent2 > Categories > Movies > Blackmail 2018 Hindi 720p WEB-DL x264 ESub [MW] torrent


Browse Movies torrents

Blackmail 2018 Hindi 720p WEB-DL x264 ESub [MW] torrent


Download torrent: Download Blackmail 2018 Hindi 720p WEB-DL x264 ESub [MW] torrent Magnet link Bookmark Torrent: Blackmail 2018 Hindi 720p WEB-DL x264 ESub [MW]   Blackmail 2018 Hindi 720p WEB-DL x264 ESub [MW] torrent
Info hash: 29EEEE39890E743523C10828AE5E5E2ECDC38618
Category: Categories > Movies
Trackers:
View all torrent trackers >
Health:
 seeds: 63 ,  leechers: 70 |  Update >
Torrent language: Hindi Hindi
Total Size: 977.3 MB
Files List:
1    View torrent files >
Uploader:
moviezworldz
Torrent added: June 16, 2018, 3:35 pm
Tags: Comedy, Drama
Users rating: ---, not rated. please login to rate.

Download Blackmail 2018 Hindi 720p WEB-DL x264 ESub [MW] torrent



Torrent Description





General
Format : Matroska
Format version : Version 4 / Version 2
File size : 977 MiB
Duration : 2 h 17 min
Overall bit rate : 996 kb/s

Video
ID : 1
Format : AVC
Format/Info : Advanced Video Codec
Format profile :
Format settings : CABAC / 4 Ref Frames
Format settings, CABAC : Yes
Format settings, RefFrames : 4 frames
Codec ID : V_MPEG4/ISO/AVC
Duration : 2 h 17 min
Bit rate : 900 kb/s
Width : 1 280 pixels
Height : 540 pixels
Display aspect ratio : 2.40:1
Frame rate mode : Constant
Frame rate : 23.976 (23976/1000) FPS
Color space : YUV
Chroma subsampling : 4:2:0
Bit depth : 8 bits
Scan type : Progressive
Bits/(Pixel*Frame) : 0.054
Stream size : 881 MiB (90%)
Writing library : x264 core 155 r2901 7d0ff22
Default : Yes
Forced : No

Audio
ID : 2
Format : AAC
Format/Info : Advanced Audio Codec
Format profile : LC
Codec ID : A_AAC-2
Duration : 2 h 17 min
Bit rate : 96.0 kb/s
Channel(s) : 2 channels
Channel positions : Front: L R
Sampling rate : 48.0 kHz
Frame rate : 46.875 FPS (1024 SPF)
Compression mode : Lossy
Stream size : 94.2 MiB (10%)
Language : Hindi
Default : Yes
Forced : No

Text
ID : 3
Format : UTF-8
Codec ID : S_TEXT/UTF8
Codec ID/Info : UTF-8 Plain Text
Duration : 2 h 12 min
Bit rate : 46 b/s
Count of elements : 1706
Stream size : 45.5 KiB (0%)
Default : Yes
Forced : No
















Download Blackmail 2018 Hindi 720p WEB-DL x264 ESub [MW] torrent


Related Torrents


Comments   (please login to add your comment!)

sisters     the flash     pretty little liars s03e21     cars     windows 7 3d     steve winwood     naomi and alex     the joneses     santa cie     hindi     satin bloom s big tits     teaching boss     spoiled     thunderbirds are go s03e02     blacksonblondes voneva     fergie double dutchess     rims rodney     girl girl sex     beyonce beyonce     mommys son     badhaai ho     hymns flac     magda and latoya     ld dvdrip     


Home - Browse Torrents

Made with love by an Extratorrent Fan!