extratorrent - A Fan Made Alternative Login   |   Register
Important Information
Registrations are open now
-------------------------------------

Please click here to register with Extratorrent2 to recieve latest updates, add bookmarks and to post comments.

Friends
Friends

1) ProxyFix

Extratorrent2 > Categories > Movies > Blackmail (2018) 1080p Untouched WEB-DL x264 AAC ESubs 6.5GB- MovCr torrent


Browse Movies torrents

Blackmail (2018) 1080p Untouched WEB-DL x264 AAC ESubs 6.5GB- MovCr torrent


Blackmail (2018)
Name: Blackmail
Released Year: 2018
Runtime: 138 mins
Gener: Action, Comedy, Thriller
Director: Abhinay Deo
Country: India
IMDB Rating: 7.1/10
Plot: When Dev finds out his wife is cheating on him, he secretly blackmails his wife and her lover as a form of revenge.

Download torrent: Download Blackmail (2018) 1080p Untouched WEB-DL x264 AAC ESubs 6.5GB- MovCr torrent Magnet link Bookmark Torrent: Blackmail (2018) 1080p Untouched WEB-DL x264 AAC ESubs 6.5GB- MovCr   Blackmail (2018) 1080p Untouched WEB-DL x264 AAC ESubs 6.5GB- MovCr torrent
Info hash: 8623455332DB6FA62988DA9E28B6F04C0BF8057F
Category: Categories > Movies
Trackers:
View all torrent trackers >
Health:
 seeds: 14 ,  leechers: 13 |  Update >
Torrent language: Hindi Hindi
Total Size: 6.5 GB
Files List:
1    View torrent files >
Uploader:
ictv
Torrent added: June 15, 2018, 3:37 pm
Tags: "Comedy", "Drama"
IMDB: http://www.imdb.com/title/tt6972140
Users rating: ---, not rated. please login to rate.

Download Blackmail (2018) 1080p Untouched WEB-DL x264 AAC ESubs 6.5GB- MovCr torrent



Torrent Description

Visit Our Site For More Exclusives www.movcr.com

http://www.imdb.com/title/tt6972140/



General
Unique ID : 272949331483761479025069480338457155984 (0xCD58210B6B8538F12EB51106E3C0D990)
Complete name : [MovCr.com] - Blackmail (2018) 1080p Untouched WEB-DL x264 AAC ESubs 6GB- MovCr.mkv
Format : Matroska
Format version : Version 4 / Version 2
File size : 6.54 GiB
Duration : 2 h 17 min
Overall bit rate : 6 829 kb/s
Movie name : www.MovCr.com
Encoded date : UTC 2018-06-15 04:25:53
Writing application : mkvmerge v23.0.0 ('The Bride Said No') 64-bit
Writing library : libebml v1.3.6 + libmatroska v1.4.9
Cover : Yes
Attachments : Cover.jpg

Video
ID : 1
Format : AVC
Format/Info : Advanced Video Codec
Format profile :
Format settings, CABAC : Yes
Format settings, ReFrames : 3 frames
Codec ID : V_MPEG4/ISO/AVC
Duration : 2 h 17 min
Bit rate : 6 540 kb/s
Width : 1 920 pixels
Height : 816 pixels
Display aspect ratio : 2.35:1
Frame rate mode : Constant
Frame rate : 23.976 (23976/1000) FPS
Color space : YUV
Chroma subsampling : 4:2:0
Bit depth : 8 bits
Scan type : Progressive
Bits/(Pixel*Frame) : 0.174
Stream size : 6.27 GiB (96%)
Title : www.MovCr.com
Writing library : x264 core 152
Encoding settings : cabac=1 / ref=3 / deblock=1:0:0 / analyse=0x1:0x111 / me=hex / subme=7 / psy=1 / psy_rd=1.00:0.00 / mixed_ref=1 / me_range=16 / chroma_me=1 / trellis=1 / 8x8dct=0 / cqm=0 / deadzone=21,11 / fast_pskip=1 / chroma_qp_offset=-2 / threads=18 / lookahead_threads=3 / sliced_threads=0 / nr=0 / decimate=1 / interlaced=0 / bluray_compat=0 / constrained_intra=0 / bframes=3 / b_pyramid=1 / b_adapt=1 / b_bias=0 / direct=1 / weightb=1 / open_gop=0 / weightp=2 / keyint=250 / keyint_min=25 / scenecut=40 / intra_refresh=0 / rc_lookahead=40 / rc=crf / mbtree=1 / crf=15.0 / qcomp=0.60 / qpmin=10 / qpmax=51 / qpstep=4 / ip_ratio=1.41 / aq=1:1.00
Default : Yes
Forced : No

Audio
ID : 2
Format : AAC
Format/Info : Advanced Audio Codec
Format profile : LC
Codec ID : A_AAC
Duration : 2 h 17 min
Bit rate : 288 kb/s
Channel(s) : 2 channels
Channel positions : Front: L R
Sampling rate : 48.0 kHz
Frame rate : 46.875 FPS (1024 spf)
Compression mode : Lossy
Stream size : 281 MiB (4%)
Title : www.MovCr.com
Language : Hindi
Default : Yes
Forced : No

Text
ID : 3
Format : UTF-8
Codec ID : S_TEXT/UTF8
Codec ID/Info : UTF-8 Plain Text
Duration : 2 h 12 min
Bit rate : 46 b/s
Count of elements : 1706
Stream size : 45.5 KiB (0%)
Title : www.MovCr.com
Language : English
Default : Yes
Forced : No











Download Blackmail (2018) 1080p Untouched WEB-DL x264 AAC ESubs 6.5GB- MovCr torrent


Related Torrents


Comments   (please login to add your comment!)


Home - Browse Torrents

Made with love by an Extratorrent Fan!