extratorrent - A Fan Made Alternative Login   |   Register
Important Information
Registrations are open now
-------------------------------------

Please click here to register with Extratorrent2 to recieve latest updates, add bookmarks and to post comments.

Friends
Friends

1) ProxyFix

Extratorrent2 > Categories > Movies > Blackmail 2018 Hindi 1080p WEB-DL x264 ESub [MW] torrent


Browse Movies torrents

Blackmail 2018 Hindi 1080p WEB-DL x264 ESub [MW] torrent


Download torrent: Download Blackmail 2018 Hindi 1080p WEB-DL x264 ESub [MW] torrent Magnet link Bookmark Torrent: Blackmail 2018 Hindi 1080p WEB-DL x264 ESub [MW]   Blackmail 2018 Hindi 1080p WEB-DL x264 ESub [MW] torrent
Info hash: 6ADCF3A6F86F71C03F8EDB67E94B5E13ECE66B25
Category: Categories > Movies
Trackers:
View all torrent trackers >
Health:
 seeds: 93 ,  leechers: 83 |  Update >
Torrent language: Hindi Hindi
Total Size: 1.8 GB
Files List:
1    View torrent files >
Uploader:
moviezworldz
Torrent added: June 16, 2018, 3:34 pm
Tags: Comedy, Drama
Users rating: ---, not rated. please login to rate.

Download Blackmail 2018 Hindi 1080p WEB-DL x264 ESub [MW] torrent



Torrent Description






General
Format : Matroska
Format version : Version 4 / Version 2
File size : 1.81 GiB
Duration : 2 h 17 min
Overall bit rate : 1 887 kb/s

Video
ID : 1
Format : AVC
Format/Info : Advanced Video Codec
Format profile :
Format settings : CABAC / 4 Ref Frames
Format settings, CABAC : Yes
Format settings, RefFrames : 4 frames
Codec ID : V_MPEG4/ISO/AVC
Duration : 2 h 17 min
Bit rate : 1 700 kb/s
Width : 1 920 pixels
Height : 812 pixels
Display aspect ratio : 2.35:1
Frame rate mode : Constant
Frame rate : 23.976 (23976/1000) FPS
Color space : YUV
Chroma subsampling : 4:2:0
Bit depth : 8 bits
Scan type : Progressive
Bits/(Pixel*Frame) : 0.045
Stream size : 1.62 GiB (90%)
Writing library : x264 core 155 r2901 7d0ff22
Default : Yes
Forced : No

Audio
ID : 2
Format : AAC
Format/Info : Advanced Audio Codec
Format profile : LC
Codec ID : A_AAC-2
Duration : 2 h 17 min
Bit rate : 192 kb/s
Channel(s) : 2 channels
Channel positions : Front: L R
Sampling rate : 48.0 kHz
Frame rate : 46.875 FPS (1024 SPF)
Compression mode : Lossy
Stream size : 188 MiB (10%)
Language : Hindi
Default : Yes
Forced : No

Text
ID : 3
Format : UTF-8
Codec ID : S_TEXT/UTF8
Codec ID/Info : UTF-8 Plain Text
Duration : 2 h 12 min
Bit rate : 46 b/s
Count of elements : 1706
Stream size : 45.5 KiB (0%)
Default : Yes
Forced : No














Download Blackmail 2018 Hindi 1080p WEB-DL x264 ESub [MW] torrent


Related Torrents


Comments   (please login to add your comment!)

guardiani     lana rhodes great     the maze runner     milf private     vr french     pakistan     jap xxx     walking dead     familystrokes kagney linn karter but shes my stepmom     asesinos inocentes     uncen     the cast of     serenity     erotic     still     3on1     creed 2     serva     blacked     gf paki     2014 s     happy end     claudia     camrip     


Home - Browse Torrents

Made with love by an Extratorrent Fan!