extratorrent - A Fan Made Alternative Login   |   Register
Important Information
Registrations are open now
-------------------------------------

Please click here to register with Extratorrent2 to recieve latest updates, add bookmarks and to post comments.

Friends
Friends

1) ProxyFix

Extratorrent2 > Categories > Movies > Blackmail 2018 Hindi 1080p BluRay x264 DTS 5.1 MSubS - Hon3yHD torrent


Browse Movies torrents

Blackmail 2018 Hindi 1080p BluRay x264 DTS 5.1 MSubS - Hon3yHD torrent


Blackmail (2018)
Name: Blackmail
Released Year: 2018
Runtime: 138 mins
Gener: Action, Comedy, Thriller
Director: Abhinay Deo
Country: India
IMDB Rating: 7.1/10
Plot: When Dev finds out his wife is cheating on him, he secretly blackmails his wife and her lover as a form of revenge.

Download torrent: Download Blackmail 2018 Hindi 1080p BluRay x264 DTS 5.1 MSubS -  Hon3yHD torrent Magnet link Bookmark Torrent: Blackmail 2018 Hindi 1080p BluRay x264 DTS 5.1 MSubS -  Hon3yHD   Blackmail 2018 Hindi 1080p BluRay x264 DTS 5.1 MSubS - Hon3yHD torrent
Info hash: 9F2CC204B718E2ED84A74BB1BA8DBA0CB135E7FC
Category: Categories > Movies
Trackers:
View all torrent trackers >
Health:
 seeds: 7 ,  leechers: 5 |  Update >
Torrent language: Hindi Hindi
Total Size: 4.4 GB
Files List:
3    View torrent files >
Uploader:
Hon3yHD
Torrent added: October 13, 2018, 4:31 am
IMDB: http://www.imdb.com/title/tt6972140
Users rating: ---, not rated. please login to rate.

Download Blackmail 2018 Hindi 1080p BluRay x264 DTS 5.1 MSubS -  Hon3yHD torrent



Torrent Description





http://www.imdb.com/title/tt6972140/

Source: Team Telly . Thanks !


Format : Matroska
Format version : Version 4 / Version 2
File size : 4.37 GiB
Duration : 2 h 18 min
Overall bit rate : 4 526 kb/s
Movie name : Blackmail 2018 - Hon3yHD


Video
ID : 1
Format : AVC
Format/Info : Advanced Video Codec
Format profile :
Format settings : CABAC / 5 Ref Frames
Format settings, CABAC : Yes
Format settings, RefFrames : 5 frames
Codec ID : V_MPEG4/ISO/AVC
Duration : 2 h 18 min
Bit rate : 3 758 kb/s
Width : 1 920 pixels
Height : 800 pixels
Display aspect ratio : 2.40:1
Frame rate mode : Constant
Frame rate : 24.000 FPS


Audio
ID : 2
Format : DTS
Format/Info : Digital Theater Systems
Codec ID : A_DTS
Duration : 2 h 18 min
Bit rate mode : Constant
Bit rate : 768 kb/s
Channel(s) : 6 channels
Channel positions : Front: L C R, Side: L R, LFE
Sampling rate : 48.0 kHz
Frame rate : 93.750 FPS (512 SPF)
Bit depth : 24 bits
Compression mode : Lossy
Stream size : 759 MiB (17%)
Language : Hindi
Default : Yes
Forced : No

Text #1
ID : 3
Format : UTF-8
Codec ID : S_TEXT/UTF8
Codec ID/Info : UTF-8 Plain Text
Duration : 2 h 12 min
Bit rate : 47 b/s
Count of elements : 1700
Stream size : 46.1 KiB (0%)
Language : English
Default : Yes
Forced : No

Text #2
ID : 4
Format : UTF-8
Codec ID : S_TEXT/UTF8
Codec ID/Info : UTF-8 Plain Text
Duration : 2 h 12 min
Bit rate : 67 b/s
Count of elements : 1639
Stream size : 65.2 KiB (0%)
Language : Arabic
Default : No
Forced : No

Text #3
ID : 5
Format : PGS
Codec ID : S_HDMV/PGS
Codec ID/Info : Picture based subtitle format used on BDs/HD-DVDs
Duration : 2 h 12 min
Bit rate : 26.0 kb/s
Count of elements : 3365
Stream size : 24.7 MiB (1%)
Language : English
Default : No
Forced : No

Menu
00:00:00.000 : en:00:00:00.000
00:03:48.250 : en:00:03:48.250
00:10:33.417 : en:00:10:33.417
00:16:09.208 : en:00:16:09.208
00:19:44.000 : en:00:19:44.000
00:31:00.333 : en:00:31:00.333
00:35:59.542 : en:00:35:59.542
00:47:06.000 : en:00:47:06.000
00:52:36.833 : en:00:52:36.833
00:59:34.417 : en:00:59:34.417
01:01:43.833 : en:01:01:43.833
01:08:11.500 : en:01:08:11.500
01:16:48.833 : en:01:16:48.833
01:20:54.208 : en:01:20:54.208
01:26:39.208 : en:01:26:39.208
01:42:44.500 : en:01:42:44.500
01:46:58.917 : en:01:46:58.917
02:04:59.000 : en:02:04:59.000
02:07:17.667 : en:02:07:17.667
02:10:24.875 : en:02:10:24.875
02:13:17.500 : en:02:13:17.500

http://hon3yhd.net



Download Blackmail 2018 Hindi 1080p BluRay x264 DTS 5.1 MSubS -  Hon3yHD torrent


Related Torrents


Comments   (please login to add your comment!)


Home - Browse Torrents

Made with love by an Extratorrent Fan!