extratorrent - A Fan Made Alternative Login   |   Register
Important Information
Registrations are open now
-------------------------------------

Please click here to register with Extratorrent2 to recieve latest updates, add bookmarks and to post comments.

Friends
Friends

1) ProxyFix

Extratorrent2 > Categories > Movies > Blackmail (2018) HDRip 720p Hindi H.264 AAC - LatestHDMovies torrent


Browse Movies torrents

Blackmail (2018) HDRip 720p Hindi H.264 AAC - LatestHDMovies torrent


Download torrent: Download Blackmail (2018) HDRip 720p Hindi H.264 AAC - LatestHDMovies torrent Magnet link Bookmark Torrent: Blackmail (2018) HDRip 720p Hindi H.264 AAC - LatestHDMovies   Blackmail (2018) HDRip 720p Hindi H.264 AAC - LatestHDMovies torrent
Info hash: 4B87048212C41A4DF989D888D3B22F63ED525F6C
Category: Categories > Movies
Trackers:
View all torrent trackers >
Health:
 seeds: 39 ,  leechers: 13 |  Update >
Torrent language: Arabic Arabic
Total Size: 1.3 GB
Files List:
1    View torrent files >
Uploader:
LHDM
Torrent added: June 15, 2018, 3:37 pm
Tags: Blackmail, 2018, Blackmail
Users rating: ---, not rated. please login to rate.

Download Blackmail (2018) HDRip 720p Hindi H.264 AAC - LatestHDMovies torrent



Torrent Description






[[>>SAMPLE<<]]
http://oload.stream/f/cHgv_pzFX1U/vlc-record-2018-06-15-09h15m29s-LatestHDMovies___TeamSHAHID-.mp4









General
Unique ID : 302450457372980391325774687526887957654 (0xE389D6D967754E398C87D34BC0692496)
Complete name : C:\Users\Shahid\Downloads\Video\Blackmail (2018) HDRip 720p Hindi H.264 AAC - LatestHDMovies.mkv
Format : Matroska
Format version : Version 4 / Version 2
File size : 1.32 GiB
Duration : 2 h 17 min
Overall bit rate : 1 377 kb/s
Movie name : LatestHDMovies | TeamSHAHID
Encoded date : UTC 2018-06-15 04:05:07
Writing application : mkvmerge v23.0.0 ('The Bride Said No') 32-bit
Writing library : libebml v1.3.6 + libmatroska v1.4.9
Cover : Yes
Attachments : Cover.jpg

Video
ID : 1
Format : AVC
Format/Info : Advanced Video Codec
Format profile :
Format settings : CABAC / 5 Ref Frames
Format settings, CABAC : Yes
Format settings, ReFrames : 5 frames
Codec ID : V_MPEG4/ISO/AVC
Duration : 2 h 17 min
Bit rate : 1 088 kb/s
Width : 1 280 pixels
Height : 544 pixels
Display aspect ratio : 2.35:1
Frame rate mode : Constant
Frame rate : 23.976 (23976/1000) FPS
Color space : YUV
Chroma subsampling : 4:2:0
Bit depth : 8 bits
Scan type : Progressive
Bits/(Pixel*Frame) : 0.065
Stream size : 1.04 GiB (79%)
Title : LatestHDMovies | TeamSHAHID
Writing library : x264 core 148 r2643 5c65704
Encoding settings : cabac=1 / ref=5 / deblock=1:0:0 / analyse=0x3:0x113 / me=hex / subme=7 / psy=1 / psy_rd=1.00:0.00 / mixed_ref=1 / me_range=16 / chroma_me=1 / trellis=1 / 8x8dct=1 / cqm=0 / deadzone=21,11 / fast_pskip=1 / chroma_qp_offset=-2 / threads=8 / lookahead_threads=8 / sliced_threads=1 / slices=8 / nr=0 / decimate=1 / interlaced=0 / bluray_compat=0 / constrained_intra=0 / bframes=0 / weightp=2 / keyint=250 / keyint_min=23 / scenecut=40 / intra_refresh=0 / rc=2pass / mbtree=0 / bitrate=1088 / ratetol=1.0 / qcomp=0.60 / qpmin=0 / qpmax=69 / qpstep=4 / cplxblur=20.0 / qblur=0.5 / ip_ratio=1.40 / aq=1:1.00
Default : Yes
Forced : No

Audio
ID : 2
Format : AAC
Format/Info : Advanced Audio Codec
Format profile : LC
Codec ID : A_AAC-2
Duration : 2 h 17 min
Bit rate : 288 kb/s
Channel(s) : 2 channels
Channel positions : Front: L R
Sampling rate : 48.0 kHz
Frame rate : 46.875 FPS (1024 SPF)
Compression mode : Lossy
Stream size : 281 MiB (21%)
Title : LatestHDMovies | TeamSHAHID
Language : Hindi
Default : Yes
Forced : No
















Download Blackmail (2018) HDRip 720p Hindi H.264 AAC - LatestHDMovies torrent


Related Torrents


Comments   (please login to add your comment!)


Home - Browse Torrents

Made with love by an Extratorrent Fan!