extratorrent - A Fan Made Alternative Login   |   Register
Important Information
Registrations are open now
-------------------------------------

Please click here to register with Extratorrent2 to recieve latest updates, add bookmarks and to post comments.

Friends
Friends

1) ProxyFix

Extratorrent2 > Categories > Movies > To Hell And Back The Kane Hodder Story.2017.1080p.BRRip.x264.AAC.5.1.-.Hon3yHD torrent


Browse Movies torrents

To Hell And Back The Kane Hodder Story.2017.1080p.BRRip.x264.AAC.5.1.-.Hon3yHD torrent


Download torrent: Download To Hell And Back The Kane Hodder Story.2017.1080p.BRRip.x264.AAC.5.1.-.Hon3yHD torrent Magnet link Bookmark Torrent: To Hell And Back The Kane Hodder Story.2017.1080p.BRRip.x264.AAC.5.1.-.Hon3yHD   To Hell And Back The Kane Hodder Story.2017.1080p.BRRip.x264.AAC.5.1.-.Hon3yHD torrent
Info hash: 9E96CF0E9768FF01BDAD71DB22DA7E7F905A4CF3
Category: Categories > Movies
Trackers:
View all torrent trackers >
Health:
 seeds: 2 ,  leechers: 1 |  Update >
Torrent language: English English
Total Size: 2.1 GB
Files List:
4    View torrent files >
Uploader:
Hon3yHD
Torrent added: October 15, 2018, 4:31 pm
Users rating: ---, not rated. please login to rate.

Download To Hell And Back The Kane Hodder Story.2017.1080p.BRRip.x264.AAC.5.1.-.Hon3yHD torrent



Torrent Description







Format : Matroska
Format version : Version 4
File size : 2.13 GiB
Duration : 1 h 48 min
Overall bit rate : 2 801 kb/s
Movie name : To Hell And Back The Kane Hodder Story.2017.1080p.BRRip.x264.AAC.5.1.-.Hon3yHD


Video
ID : 1
Format : AVC
Format/Info : Advanced Video Codec
Format profile :
Format settings : CABAC / 8 Ref Frames
Format settings, CABAC : Yes
Format settings, RefFrames : 8 frames
Codec ID : V_MPEG4/ISO/AVC
Duration : 1 h 48 min
Bit rate : 2 500 kb/s
Width : 1 920 pixels
Height : 816 pixels
Display aspect ratio : 2.35:1
Frame rate mode : Constant
Frame rate : 23.976 (24000/1001) FPS
Color space : YUV
Chroma subsampling : 4:2:0
Bit depth : 8 bits
Scan type : Progressive

Audio
ID : 2
Format : AAC LC
Format/Info : Advanced Audio Codec Low Complexity
Codec ID : A_AAC-2
Duration : 1 h 48 min
Bit rate : 288 kb/s
Channel(s) : 6 channels
Channel layout : C L R Ls Rs LFE
Sampling rate : 48.0 kHz
Frame rate : 46.875 FPS (1024 SPF)
Compression mode : Lossy
Delay relative to video : 9 ms
Stream size : 225 MiB (10%)
Title : Hon3yHD.org
Language : English


Text
ID : 3
Format : UTF-8
Codec ID : S_TEXT/UTF8
Codec ID/Info : UTF-8 Plain Text
Duration : 1 h 48 min
Bit rate : 103 b/s
Count of elements : 2171
Stream size : 82.1 KiB (0%)
Title : Hon3yHD.org
Language : English


For more Exclusive & Quality Stuff Visit :: Hon3yHD



Download To Hell And Back The Kane Hodder Story.2017.1080p.BRRip.x264.AAC.5.1.-.Hon3yHD torrent


Related Torrents


Comments   (please login to add your comment!)

xxx party     1080p foxm     creampie sister     anal 2018     big facial     brrip 2017     avengers infinity war     celestial     mine     august ames these tits were made     come and see 1080p     thundercats 2011 s01e01     pooh     cards     telugu     afg     delta force black hawk down pc     defloration     gotti torrent     she male strokers     18xgirls     jessica rex     veronica squirt     torment     


Home - Browse Torrents

Made with love by an Extratorrent Fan!