extratorrent - A Fan Made Alternative Login   |   Register
Important Information
Registrations are open now
-------------------------------------

Please click here to register with Extratorrent2 to recieve latest updates, add bookmarks and to post comments.

Friends
Friends

1) ProxyFix

Extratorrent2 > Categories > Movies > Blackmail (2018) 720p WEB-HD x264 AAC - Esub ~ Ranvijay torrent


Browse Movies torrents

Blackmail (2018) 720p WEB-HD x264 AAC - Esub ~ Ranvijay torrent


Download torrent: Download Blackmail (2018) 720p WEB-HD x264 AAC - Esub ~ Ranvijay torrent Magnet link Bookmark Torrent: Blackmail (2018) 720p WEB-HD x264 AAC - Esub ~ Ranvijay   Blackmail (2018) 720p WEB-HD x264 AAC - Esub ~ Ranvijay torrent
Info hash: E2E2D162EEBAD92600D5F55918B01DCF046BEA48
Category: Categories > Movies
Trackers:
View all torrent trackers >
Health:
 seeds: 5 ,  leechers: 1 |  Update >
Torrent language: Hindi Hindi
Total Size: 1.5 GB
Files List:
3    View torrent files >
Uploader:
TheFighter
Torrent added: June 15, 2018, 3:36 pm
Tags: Ranvijay, ShareSpark
Users rating: ---, not rated. please login to rate.

Download Blackmail (2018) 720p WEB-HD x264 AAC - Esub ~ Ranvijay torrent



Torrent Description



Blackmail (2018) 720p WEB-HD x264 AAC - Esub ~ Ranvijay

Source :- DTOne

Buy RDP Online


Format : Matroska
Format version : Version 4 / Version 2
File size : 1.47 GiB
Duration : 2 h 17 min
Overall bit rate : 1 533 kb/s
Movie name : Blackmail (2018) 720p WEB-HD x264 AAC - Esub ~ Ranvijay

Video
ID : 1
Format : AVC
Duration : 2 h 17 min
Bit rate : 1 242 kb/s
Width : 1 280 pixels
Height : 542 pixels
Display aspect ratio : 2.35:1
Original display aspect ratio : 2.35:1
Frame rate mode : Constant
Frame rate : 23.976 (23976/1000) FPS
Color space : YUV
Chroma subsampling : 4:2:0
Bit depth : 8 bits
Scan type : Progressive
Bits/(Pixel*Frame) : 0.075
Stream size : 1.19 GiB (81%)
Title : ~Ranvijay~
Default : Yes
Forced : No

Audio
ID : 2
Format : AAC
Format/Info : Advanced Audio Codec
Format profile : LC
Codec ID : A_AAC-2
Duration : 2 h 17 min
Bit rate : 288 kb/s
Channel(s) : 2 channels
Channel positions : Front: L R
Sampling rate : 48.0 kHz
Frame rate : 46.875 FPS (1024 SPF)
Compression mode : Lossy
Delay relative to video : -83 ms
Stream size : 281 MiB (19%)
Title : ~Ranvijay~
Language : Hindi
Default : Yes
Forced : No

Text
ID : 3
Format : UTF-8
Codec ID : S_TEXT/UTF8
Codec ID/Info : UTF-8 Plain Text
Duration : 2 h 12 min
Bit rate : 46 b/s
Count of elements : 1706
Stream size : 45.5 KiB (0%)
Title : ~Ranvijay~
Language : English
Default : Yes
Forced : No

















Download Blackmail (2018) 720p WEB-HD x264 AAC - Esub ~ Ranvijay torrent


Related Torrents


Comments   (please login to add your comment!)

blacked     the zero     my wife the slut     gloryhole     the bad batch ita     catalan girl     guardians of galaxy vol 2 hindi     noel     danny adams     genius 1080p     10bit d3g     the flash     brazzers group     18eighteen mp4     janet gray     2004 yify     chinese zodiac     power iso     kendra lust     il verdetto     sisters     pretty little liars s03e21     cars     windows 7 3d     


Home - Browse Torrents

Made with love by an Extratorrent Fan!