extratorrent - A Fan Made Alternative Login   |   Register
Important Information
Registrations are open now
-------------------------------------

Please click here to register with Extratorrent2 to recieve latest updates, add bookmarks and to post comments.

Friends
Friends

1) ProxyFix

Extratorrent2 > Categories > Movies > Blackmail 2018 Hindi 1080p BluRay DD 5.1 x264 ESub [MW] torrent


Browse Movies torrents

Blackmail 2018 Hindi 1080p BluRay DD 5.1 x264 ESub [MW] torrent


Download torrent: Download Blackmail 2018 Hindi 1080p BluRay DD 5.1 x264 ESub [MW] torrent Magnet link Bookmark Torrent: Blackmail 2018 Hindi 1080p BluRay DD 5.1 x264 ESub [MW]   Blackmail 2018 Hindi 1080p BluRay DD 5.1 x264 ESub [MW] torrent
Info hash: C9B5CAF7945AADC8D4DAA2CDFAA6856F45A249EF
Category: Categories > Movies
Trackers:
View all torrent trackers >
Health:
 seeds: 16 ,  leechers: 8 |  Update >
Torrent language: Hindi Hindi
Total Size: 2.7 GB
Files List:
1    View torrent files >
Uploader:
moviezworldz
Torrent added: October 10, 2018, 4:32 pm
Tags: Action, Comedy, Crime
Users rating: ---, not rated. please login to rate.

Download Blackmail 2018 Hindi 1080p BluRay DD 5.1 x264 ESub [MW] torrent



Torrent Description





General
Format : Matroska
Format version : Version 4 / Version 2
File size : 2.70 GiB
Duration : 2 h 18 min
Overall bit rate : 2 796 kb/s

Video
ID : 1
Format : AVC
Format/Info : Advanced Video Codec
Format profile :
Format settings : CABAC / 4 Ref Frames
Format settings, CABAC : Yes
Format settings, RefFrames : 4 frames
Codec ID : V_MPEG4/ISO/AVC
Duration : 2 h 18 min
Bit rate : 2 400 kb/s
Width : 1 920 pixels
Height : 800 pixels
Display aspect ratio : 2.40:1
Frame rate mode : Constant
Frame rate : 24.000 FPS
Color space : YUV
Chroma subsampling : 4:2:0
Bit depth : 8 bits
Scan type : Progressive
Bits/(Pixel*Frame) : 0.065
Stream size : 2.32 GiB (86%)
Writing library : x264 core 155 r2901 7d0ff22
Default : Yes
Forced : No

Audio
ID : 2
Format : AC-3
Format/Info : Audio Coding 3
Codec ID : A_AC3
Duration : 2 h 18 min
Bit rate mode : Constant
Bit rate : 384 kb/s
Channel(s) : 6 channels
Channel positions : Front: L C R, Side: L R, LFE
Sampling rate : 48.0 kHz
Frame rate : 31.250 FPS (1536 SPF)
Bit depth : 16 bits
Compression mode : Lossy
Stream size : 380 MiB (14%)
Language : Hindi
Service kind : Complete Main
Default : Yes
Forced : No

Text
ID : 3
Format : PGS
Muxing mode : zlib
Codec ID : S_HDMV/PGS
Codec ID/Info : Picture based subtitle format used on BDs/HD-DVDs
Duration : 2 h 12 min
Bit rate : 11.3 kb/s
Count of elements : 3365
Stream size : 10.8 MiB (0%)
Language : English
Default : Yes
Forced : No


Click To Enlarge Image









Download Blackmail 2018 Hindi 1080p BluRay DD 5.1 x264 ESub [MW] torrent


Related Torrents


Comments   (please login to add your comment!)

100 cd     ne yo good man     jay dee     highway to hell     alien 1979     jillian hevc     2018 sexy     handmade     cds     16 an     android pack     reid x265     elena of avalor     raabta     chicago fire     hindi     escorted to the brazilian back door     mom s06e09     war for the planet of the apes 2017 1080p bluray hindi     warden     1080p bluray hon3y     simpsons s29e17     creed 2     alien     


Home - Browse Torrents

Made with love by an Extratorrent Fan!