extratorrent - A Fan Made Alternative Login   |   Register
Important Information
Registrations are open now
-------------------------------------

Please click here to register with Extratorrent2 to recieve latest updates, add bookmarks and to post comments.

Friends
Friends

1) ProxyFix

Extratorrent2 > Categories > Movies > Blackmail.2018.Hindi.720p.HDRip.x264.AAC.LLG torrent


Browse Movies torrents

Blackmail.2018.Hindi.720p.HDRip.x264.AAC.LLG torrent


Download torrent: Download Blackmail.2018.Hindi.720p.HDRip.x264.AAC.LLG torrent Magnet link Bookmark Torrent: Blackmail.2018.Hindi.720p.HDRip.x264.AAC.LLG   Blackmail.2018.Hindi.720p.HDRip.x264.AAC.LLG torrent
Info hash: ABB78A3FEC11BE7F07375BFDDAA6D4328D0EE87D
Category: Categories > Movies
Trackers:
View all torrent trackers >
Health:
 seeds: 8 ,  leechers: 18 |  Update >
Torrent language: Hindi Hindi
Total Size: 954.5 MB
Files List:
2    View torrent files >
Uploader:
LifeLongg
Torrent added: June 17, 2018, 3:34 pm
Tags: Blackmail, 2018, HD, , Comedy, Drama
Users rating: ---, not rated. please login to rate.

Download Blackmail.2018.Hindi.720p.HDRip.x264.AAC.LLG torrent



Torrent Description

******************************Thumbnail:**********************



******************************Screenshots:********************

Screenshot 1

Screenshot 2

Screenshot 3

Screenshot 4

Screenshot 5

Screenshot 6

Screenshot 7

Screenshot 8

Screenshot 9

Screenshot 0

**************************************************************

Complete name                            : Blackmail.2018.Hindi.720p.HDRip.x264.AAC.LLG.mp4
Format                                   : MPEG-4
Format profile                           : Base Media
Codec ID                                 : isom (isom/iso2/avc1/mp41)
File size                                : 949 MiB
Duration                                 : 2 h 16 min
Overall bit rate                         : 969 kb/s
Writing application                      : Lavf57.56.101

Video
ID                                       : 1
Format                                   : AVC
Format/Info                              : Advanced Video Codec
Format profile                           :
Format settings                          : CABAC / 4 Ref Frames
Format settings, CABAC                   : Yes
Format settings, RefFrames               : 4 frames
Codec ID                                 : avc1
Codec ID/Info                            : Advanced Video Coding
Duration                                 : 2 h 16 min
Bit rate                                 : 900 kb/s
Width                                    : 1 280 pixels
Height                                   : 542 pixels
Display aspect ratio                     : 2.35:1
Frame rate mode                          : Constant
Frame rate                               : 23.976 (23976/1000) FPS
Color space                              : YUV
Chroma subsampling                       : 4:2:0
Bit depth                                : 8 bits
Scan type                                : Progressive
Bits/(Pixel*Frame)                       : 0.054
Stream size                              : 879 MiB (93%)

Audio
ID                                       : 2
Format                                   : AAC
Format/Info                              : Advanced Audio Codec
Format profile                           : LC
Codec ID                                 : mp4a-40-2
Duration                                 : 2 h 16 min
Bit rate mode                            : Constant
Bit rate                                 : 64.7 kb/s
Channel(s)                               : 2 channels
Channel positions                        : Front: L R
Sampling rate                            : 44.1 kHz
Frame rate                               : 43.066 FPS (1024 SPF)
Compression mode                         : Lossy
Stream size                              : 63.3 MiB (7%)
Default                                  : Yes
Alternate group                          : 1


Download Blackmail.2018.Hindi.720p.HDRip.x264.AAC.LLG torrent


Related Torrents


Comments   (please login to add your comment!)


Home - Browse Torrents

Made with love by an Extratorrent Fan!