extratorrent - A Fan Made Alternative Login   |   Register
Important Information
Registrations are open now
-------------------------------------

Please click here to register with Extratorrent2 to recieve latest updates, add bookmarks and to post comments.

Friends
Friends

1) ProxyFix

Extratorrent2 > Categories > Movies > Justice League Dark 2017 720p BRRip x264 [MW] torrent


Browse Movies torrents

Justice League Dark 2017 720p BRRip x264 [MW] torrent


Download torrent: Download Justice League Dark 2017 720p BRRip x264 [MW] torrent Magnet link Bookmark Torrent: Justice League Dark 2017 720p BRRip x264 [MW]   Justice League Dark 2017 720p BRRip x264 [MW] torrent
Info hash: 92CAAD4223002ABCF66C5A33C3440F22BD736EE2
Category: Categories > Movies
Trackers:
View all torrent trackers >
Health:
 seeds: 15 ,  leechers: 6 |  Update >
Torrent language: English English
Total Size: 722.4 MB
Files List:
1    View torrent files >
Uploader:
moviezworldz
Torrent added: October 23, 2018, 5:22 am
Tags: Animation, Action, Fantasy
Users rating: ---, not rated. please login to rate.

Download Justice League Dark 2017 720p BRRip x264 [MW] torrent



Torrent Description





General
Format : Matroska
Format version : Version 4 / Version 2
File size : 722 MiB
Duration : 1 h 15 min
Overall bit rate : 1 332 kb/s

Video
ID : 1
Format : AVC
Format/Info : Advanced Video Codec
Format profile :
Format settings : CABAC / 4 Ref Frames
Format settings, CABAC : Yes
Format settings, RefFrames : 4 frames
Codec ID : V_MPEG4/ISO/AVC
Duration : 1 h 15 min
Bit rate : 1 200 kb/s
Width : 1 280 pixels
Height : 720 pixels
Display aspect ratio : 16:9
Frame rate mode : Constant
Frame rate : 23.976 (24000/1001) FPS
Color space : YUV
Chroma subsampling : 4:2:0
Bit depth : 8 bits
Scan type : Progressive
Bits/(Pixel*Frame) : 0.054
Stream size : 653 MiB (90%)
Writing library : x264 core 155 r2901 7d0ff22
Default : Yes
Forced : No

Audio
ID : 2
Format : AAC
Format/Info : Advanced Audio Codec
Format profile : HE-AAC / LC
Format settings : Explicit
Codec ID : A_AAC-2
Duration : 1 h 15 min
Bit rate : 127 kb/s
Channel(s) : 2 channels
Channel positions : Front: L R
Sampling rate : 48.0 kHz / 24.0 kHz
Frame rate : 23.438 FPS (1024 SPF)
Compression mode : Lossy
Stream size : 68.7 MiB (10%)
Language : English
Default : Yes
Forced : No


Click To Enlarge Image








Download Justice League Dark 2017 720p BRRip x264 [MW] torrent


Related Torrents


Comments   (please login to add your comment!)


Home - Browse Torrents

Made with love by an Extratorrent Fan!