extratorrent - A Fan Made Alternative Login   |   Register
Important Information
Registrations are open now
-------------------------------------

Please click here to register with Extratorrent2 to recieve latest updates, add bookmarks and to post comments.

Friends
Friends

1) ProxyFix

Extratorrent2 > Categories > Movies > Blackmail 2018 x264 720p HD 5.1 Esub Hindi GOPISAHI torrent


Browse Movies torrents

Blackmail 2018 x264 720p HD 5.1 Esub Hindi GOPISAHI torrent


Download torrent: Download Blackmail 2018 x264 720p HD 5.1 Esub Hindi GOPISAHI torrent Magnet link Bookmark Torrent: Blackmail 2018 x264 720p HD 5.1 Esub Hindi GOPISAHI   Blackmail 2018 x264 720p HD 5.1 Esub Hindi GOPISAHI torrent
Info hash: 8727B5DF4DA001DB50DCF7EFF9C4BAC59DF986CA
Category: Categories > Movies
Trackers:
View all torrent trackers >
Health:
 seeds: 30 ,  leechers: 23 |  Update >
Torrent language: Hindi Hindi
Total Size: 675.3 MB
Files List:
1    View torrent files >
Uploader:
PENDUDESI
Torrent added: June 15, 2018, 3:35 pm
Users rating: ---, not rated. please login to rate.

Download Blackmail 2018 x264 720p HD 5.1 Esub Hindi GOPISAHI torrent



Torrent Description

http://www.gopisahi.pw/

Format : Matroska
Format version : Version 4 / Version 2
File size : 675 MiB
Duration : 2 h 16 min
Overall bit rate : 690 kb/s
Movie name : Blackmail 2018 GOPISAHI

Video
Format : AVC
Codec ID : V_MPEG4/ISO/AVC
Duration : 2 h 16 min
Bit rate : 600 kb/s
Width : 1 280 pixels
Height : 542 pixels
Display aspect ratio : 2.35:1
Frame rate mode : Constant
Frame rate : 23.976 (23976/1000) FPS
Color space : YUV
Chroma subsampling : 4:2:0
Bit depth : 8 bits
Scan type : Progressive
Bits/(Pixel*Frame) : 0.036
Stream size : 587 MiB (87%)
Title : GOPISAHI
Writing library : x264 core 155 r2893 b00bcaf
Language : Hindi

Audio
Format : AAC
Duration : 2 h 16 min
Bit rate : 87.9 kb/s
Channel(s) : 6 channels
Channel positions : Front: L C R, Side: L R, LFE
Sampling rate : 44.1 kHz
Frame rate : 43.066 FPS (1024 SPF)
Compression mode : Lossy
Stream size : 86.0 MiB (13%)
Title : GOPISAHI
Language : Hindi

Text
Language : English



Download Blackmail 2018 x264 720p HD 5.1 Esub Hindi GOPISAHI torrent


Related Torrents


Comments   (please login to add your comment!)

party     russian institute lesson 11     mein     enceinte     all sex     blacked     english hindi     x art the     kyoukai no kanata     indian big     hindi 2018     shahid 2013     megan sage     lektor     hindi hd     supernatural hdtv     quest     bathrooms     bum bum     sextape     type     in my ass     the little     greatest hits     


Home - Browse Torrents

Made with love by an Extratorrent Fan!