extratorrent - A Fan Made Alternative Login   |   Register
Important Information
Registrations are open now
-------------------------------------

Please click here to register with Extratorrent2 to recieve latest updates, add bookmarks and to post comments.

Friends
Friends

1) ProxyFix

Extratorrent2 > Categories > Movies > Rodin 2017.1080p.BRRip.x264.AAC.5.1.-.Hon3yHD torrent


Browse Movies torrents

Rodin 2017.1080p.BRRip.x264.AAC.5.1.-.Hon3yHD torrent


Download torrent: Download Rodin 2017.1080p.BRRip.x264.AAC.5.1.-.Hon3yHD torrent Magnet link Bookmark Torrent: Rodin 2017.1080p.BRRip.x264.AAC.5.1.-.Hon3yHD   Rodin 2017.1080p.BRRip.x264.AAC.5.1.-.Hon3yHD torrent
Info hash: 9214DCFFD1AEAE232B2B2B5919BA81FB60765883
Category: Categories > Movies
Trackers:
View all torrent trackers >
Health:
 seeds: 1 ,  leechers: 1 |  Update >
Torrent language: French French
Total Size: 2.4 GB
Files List:
4    View torrent files >
Uploader:
Hon3yHD
Torrent added: October 17, 2018, 5:12 am
Users rating: ---, not rated. please login to rate.

Download Rodin 2017.1080p.BRRip.x264.AAC.5.1.-.Hon3yHD torrent



Torrent Description







2017.1080p.BRRip.x264.AAC.5.1.-.Hon3yHD.mkv
Format : Matroska
Format version : Version 4 / Version 2
File size : 2.36 GiB
Duration : 2 h 0 min
Overall bit rate : 2 820 kb/s
Movie name : Rodin 2017.1080p.BRRip.x264.AAC.5.1.-.Hon3yHD

Video
ID : 1
Format : AVC
Format/Info : Advanced Video Codec
Format profile :
Format settings : CABAC / 8 Ref Frames
Format settings, CABAC : Yes
Format settings, ReFrames : 8 frames
Codec ID : V_MPEG4/ISO/AVC
Duration : 2 h 0 min
Bit rate : 2 500 kb/s
Width : 1 920 pixels
Height : 808 pixels
Display aspect ratio : 2.40:1
Frame rate mode : Constant
Frame rate : 23.976 (24000/1001) FPS
Color space : YUV
Chroma subsampling : 4:2:0
Bit depth : 8 bits
Scan type : Progressive

Audio
ID : 2
Format : AAC
Format/Info : Advanced Audio Codec
Format profile : LC
Codec ID : A_AAC-2
Duration : 2 h 0 min
Bit rate : 340 kb/s
Channel(s) : 6 channels
Channel positions : Front: L C R, Side: L R, LFE
Sampling rate : 48.0 kHz
Frame rate : 46.875 FPS (1024 SPF)
Compression mode : Lossy
Delay relative to video : 9 ms
Stream size : 292 MiB (12%)
Title : Hon3yHD.org
Language : French

Text
ID : 3
Format : UTF-8
Codec ID : S_TEXT/UTF8
Codec ID/Info : UTF-8 Plain Text
Duration : 1 h 53 min
Bit rate : 38 b/s
Count of elements : 1131
Stream size : 32.1 KiB (0%)
Title : Hon3yHD.org
Language : English

For more Exclusive & Quality Stuff Visit :: Hon3yHD



Download Rodin 2017.1080p.BRRip.x264.AAC.5.1.-.Hon3yHD torrent


Related Torrents


Comments   (please login to add your comment!)


Home - Browse Torrents

Made with love by an Extratorrent Fan!