extratorrent - A Fan Made Alternative Login   |   Register
Important Information
Registrations are open now
-------------------------------------

Please click here to register with Extratorrent2 to recieve latest updates, add bookmarks and to post comments.

Friends
Friends

1) ProxyFix

Extratorrent2 > Categories > Movies > Blackmail (2018) v2 720p Hindi HQ HDRip x264 AAC 1.4GB ESub - MovCr torrent


Browse Movies torrents

Blackmail (2018) v2 720p Hindi HQ HDRip x264 AAC 1.4GB ESub - MovCr torrent


Blackmail (2018)
Name: Blackmail
Released Year: 2018
Runtime: 138 mins
Gener: Action, Comedy, Thriller
Director: Abhinay Deo
Country: India
IMDB Rating: 7.1/10
Plot: When Dev finds out his wife is cheating on him, he secretly blackmails his wife and her lover as a form of revenge.

Download torrent: Download Blackmail (2018) v2 720p Hindi HQ HDRip x264 AAC 1.4GB ESub - MovCr torrent Magnet link Bookmark Torrent: Blackmail (2018) v2 720p Hindi HQ HDRip x264 AAC 1.4GB ESub - MovCr   Blackmail (2018) v2 720p Hindi HQ HDRip x264 AAC 1.4GB ESub - MovCr torrent
Info hash: 3808202698CE3EAAFF65B06DDC06982744004FFD
Category: Categories > Movies
Trackers:
View all torrent trackers >
Health:
 seeds: 47 ,  leechers: 20 |  Update >
Torrent language: Hindi Hindi
Total Size: 1.4 GB
Files List:
1    View torrent files >
Uploader:
ictv
Torrent added: June 15, 2018, 3:36 pm
Tags: "Comedy", "Drama"
IMDB: http://www.imdb.com/title/tt6972140
Users rating: ---, not rated. please login to rate.

Download Blackmail (2018) v2 720p Hindi HQ HDRip x264 AAC 1.4GB ESub - MovCr torrent



Torrent Description

www.movcr.com

http://www.imdb.com/title/tt6972140/



General
Unique ID : 117235314532591626301603461533294161471 (0x5832B345896C0240A6F15920BA706E3F)
Complete name : www.MovCr.com - Blackmail (2018) v2 720p Hindi HQ HDRip x264 AAC 1.4GB ESub - MovCr.mkv
Format : Matroska
Format version : Version 4 / Version 2
File size : 1.37 GiB
Duration : 2 h 17 min
Overall bit rate : 1 427 kb/s
Movie name : www.MovCr.com
Encoded date : UTC 2018-06-15 06:49:18
Writing application : mkvmerge v23.0.0 ('The Bride Said No') 64-bit
Writing library : libebml v1.3.6 + libmatroska v1.4.9

Video
ID : 1
Format : AVC
Format/Info : Advanced Video Codec
Format profile :
Format settings, CABAC : Yes
Format settings, ReFrames : 5 frames
Codec ID : V_MPEG4/ISO/AVC
Duration : 2 h 17 min
Bit rate : 1 297 kb/s
Width : 1 280 pixels
Height : 544 pixels
Display aspect ratio : 2.35:1
Frame rate mode : Constant
Frame rate : 23.976 (23976/1000) FPS
Color space : YUV
Chroma subsampling : 4:2:0
Bit depth : 8 bits
Scan type : Progressive
Bits/(Pixel*Frame) : 0.078
Stream size : 1.24 GiB (91%)
Title : www.MovCr.com
Writing library : x264 core 155 r2893 b00bcaf
Encoding settings : cabac=1 / ref=5 / deblock=1:0:0 / analyse=0x1:0x111 / me=hex / subme=8 / psy=1 / psy_rd=1.00:0.00 / mixed_ref=1 / me_range=16 / chroma_me=1 / trellis=2 / 8x8dct=0 / cqm=0 / deadzone=21,11 / fast_pskip=1 / chroma_qp_offset=-2 / threads=12 / lookahead_threads=2 / sliced_threads=0 / nr=0 / decimate=1 / interlaced=0 / bluray_compat=0 / constrained_intra=0 / bframes=3 / b_pyramid=2 / b_adapt=1 / b_bias=0 / direct=3 / weightb=1 / open_gop=0 / weightp=2 / keyint=240 / keyint_min=24 / scenecut=40 / intra_refresh=0 / rc_lookahead=50 / rc=2pass / mbtree=1 / bitrate=1297 / ratetol=1.0 / qcomp=0.60 / qpmin=0 / qpmax=69 / qpstep=4 / cplxblur=20.0 / qblur=0.5 / vbv_maxrate=20000 / vbv_bufsize=25000 / nal_hrd=none / filler=0 / ip_ratio=1.40 / aq=1:1.00
Default : Yes
Forced : No
Color range : Limited
Color primaries : BT.709
Transfer characteristics : BT.709
Matrix coefficients : BT.709

Audio
ID : 2
Format : AAC
Format/Info : Advanced Audio Codec
Format profile : LC
Codec ID : A_AAC
Duration : 2 h 17 min
Bit rate : 128 kb/s
Channel(s) : 2 channels
Channel positions : Front: L R
Sampling rate : 48.0 kHz
Frame rate : 46.875 FPS (1024 spf)
Compression mode : Lossy
Stream size : 125 MiB (9%)
Title : www.MovCr.com
Language : Hindi
Default : Yes
Forced : No

Text
ID : 3
Format : UTF-8
Codec ID : S_TEXT/UTF8
Codec ID/Info : UTF-8 Plain Text
Duration : 2 h 12 min
Bit rate : 46 b/s
Count of elements : 1706
Stream size : 45.5 KiB (0%)
Title : www.MovCr.com
Default : Yes
Forced : No










Download Blackmail (2018) v2 720p Hindi HQ HDRip x264 AAC 1.4GB ESub - MovCr torrent


Related Torrents


Comments   (please login to add your comment!)


Home - Browse Torrents

Made with love by an Extratorrent Fan!